watch Venom full movie online | Quick Heal AntiVirus Pro 2013 | A Theft Condoned

Ozzy Osbourne Scream [flac] 2010

  • Download 5x Faster
  • Download torrent
  • Direct Download
  • Rate this torrent +  |  -
Ozzy Osbourne Scream [flac] 2010

Download FREE And Anonymously


Torrent info

Name:Ozzy Osbourne Scream [flac] 2010

Total Size: 358.85 MB

Magnet: Magnet Link

Seeds: 0

Leechers: 0

Stream: Watch Full Movie @ Movie4u

Last Updated: 2013-04-16 10:00:43 (Update Now)

Torrent added: 2010-08-24 19:30:51



CyberGhost VPN For Torrents

Torrent Files List


 

Announce URL:

Torrent description

Track List:

Let It Die
Let Me Hear You Scream
Soul Sucker
Life Wont Wait
Diggin Me Down
Crucify
Fearless
Time
I Want It More
Latimers Mercy
I Love You All

Exact Audio Copy V0.99 prebeta 5 from 4. May 2009

EAC extraction logfile from 18. June 2010, 9:30

Ozzy Osbourne - Scream

TOC of the extracted CD

Track | Start | Length | Start sector | End sector
---------------------------------------------------------
1 | 0:00.00 | 6:06.46 | 0 | 27495
2 | 6:06.46 | 3:25.59 | 27496 | 42929
3 | 9:32.30 | 4:34.66 | 42930 | 63545
4 | 14:07.21 | 5:06.59 | 63546 | 86554
5 | 19:14.05 | 6:03.46 | 86555 | 113825
6 | 25:17.51 | 3:29.40 | 113826 | 129540
7 | 28:47.16 | 3:41.50 | 129541 | 146165
8 | 32:28.66 | 5:31.35 | 146166 | 171025
9 | 38:00.26 | 5:36.59 | 171026 | 196284
10 | 43:37.10 | 4:27.04 | 196285 | 216313
11 | 48:04.14 | 1:02.47 | 216314 | 221010

related torrents

Torrent name

health leech seeds Size
 


comments (0)

Main Menu